<?xml version="1.0" standalone="no"?>
<!DOCTYPE svg PUBLIC "-//W3C//DTD SVG 1.1//EN" "http://www.w3.org/Graphics/SVG/1.1/DTD/svg11.dtd" >
<svg xmlns="http://www.w3.org/2000/svg">
<metadata></metadata>
<defs>
<font id="proxima_nova_ltsemibold" horiz-adv-x="501" >
<font-face units-per-em="2048" ascent="1618" descent="-430" />
<missing-glyph horiz-adv-x="526" />
<glyph horiz-adv-x="0" />
<glyph horiz-adv-x="0" />
<glyph horiz-adv-x="682" />
<glyph unicode="&#xd;" horiz-adv-x="0" />
<glyph unicode=" "  horiz-adv-x="526" />
<glyph unicode="&#x09;" horiz-adv-x="526" />
<glyph unicode="&#xa0;" horiz-adv-x="526" />
<glyph unicode="!" d="M344 418h-186l-39 948h262zM250 -20q-58 0 -99.5 42t-41.5 99q0 59 41.5 101t99.5 42t100.5 -42t42.5 -101q0 -57 -42.5 -99t-100.5 -42z" />
<glyph unicode="&#x22;" horiz-adv-x="776" d="M268 801h-98q-72 430 -72 465q0 50 35 85t86 35q50 0 85.5 -35.5t35.5 -84.5q0 -16 -18 -132t-36 -224zM606 801h-96q-72 430 -72 465q0 50 35 85t86 35q49 0 84 -35t35 -85q0 -16 -18 -132t-36 -224z" />
<glyph unicode="#" horiz-adv-x="1241" d="M659 0h-163l120 356h-208l-119 -356h-164l119 356h-205l45 142h209l121 368h-209l43 140h215l119 360h163l-118 -360h207l118 360h164l-121 -360h207l-41 -140h-213l-123 -368h215l-43 -142h-219zM662 498l122 368h-206l-121 -368h205z" />
<glyph unicode="$" horiz-adv-x="1239" d="M549 -205v185q-305 23 -477 213l133 184q140 -151 344 -182v395q-52 13 -91 24.5t-87 30.5t-82 39.5t-69 50.5t-56.5 65.5t-35 83t-13.5 103.5q0 158 119 268t315 127v191h164v-193q248 -27 411 -184l-137 -178q-114 111 -274 143v-352q63 -17 108 -32t100.5 -39 t93.5 -54t72 -70.5t51 -95.5t17 -121q0 -80 -26.5 -150t-79 -126.5t-138.5 -93.5t-198 -47v-185h-164zM911 375q0 64 -51 103t-147 69v-354q99 16 148.5 67t49.5 115zM360 1004q0 -56 49 -91t140 -61v319q-87 -9 -138 -54t-51 -113z" />
<glyph unicode="%" horiz-adv-x="1527" d="M395 709q-150 0 -244 95t-94 240q0 147 94 244.5t244 97.5q152 0 247 -97.5t95 -244.5q0 -144 -95 -239.5t-247 -95.5zM399 0h-135l873 1366h137zM1130 -25q-150 0 -243.5 95.5t-93.5 240.5q0 147 93.5 244.5t243.5 97.5t245 -97.5t95 -244.5q0 -144 -95 -240t-245 -96z M395 844q80 0 131.5 56t51.5 144q0 92 -51.5 148.5t-131.5 56.5q-79 0 -129.5 -57t-50.5 -148q0 -87 51 -143.5t129 -56.5zM1130 111q80 0 131.5 55.5t51.5 144.5q0 92 -51.5 148.5t-131.5 56.5t-130 -56.5t-50 -148.5q0 -89 50 -144.5t130 -55.5z" />
<glyph unicode="&#x26;" horiz-adv-x="1318" d="M1284 0h-280q-45 39 -121 119q-171 -144 -383 -144q-192 0 -316.5 101.5t-124.5 288.5q0 61 16.5 114t42.5 93t66.5 76.5t80 62.5t91.5 53q-96 172 -96 299q0 138 106 230.5t265 92.5q145 0 241.5 -75.5t96.5 -204.5q0 -43 -10.5 -82t-26.5 -69t-44.5 -59.5t-54 -50 t-65 -44t-68 -38t-73.5 -36.5q66 -88 135 -168q83 -101 135 -158q89 139 135 285l176 -80q-96 -213 -190 -338q113 -121 266 -268zM526 147q120 0 236 97q-128 139 -168 188q-90 108 -152 197q-153 -100 -153 -246q0 -108 69.5 -172t167.5 -64zM477 1059q0 -88 68 -207 q54 26 91.5 48.5t72 52t52 65.5t17.5 78q0 61 -38.5 96t-98.5 35q-70 0 -117 -47.5t-47 -120.5z" />
<glyph unicode="'" horiz-adv-x="438" d="M268 801h-98q-72 430 -72 465q0 50 35 85t86 35q50 0 85.5 -35.5t35.5 -84.5q0 -16 -18 -132t-36 -224z" />
<glyph unicode="(" horiz-adv-x="565" d="M528 -305l-133 -103q-145 177 -227 418t-82 488t82 486.5t227 418.5l133 -100q-107 -201 -158 -387.5t-51 -417.5t51 -417t158 -386z" />
<glyph unicode=")" horiz-adv-x="565" d="M168 -408l-133 103q108 199 159.5 385t51.5 418t-51.5 418t-159.5 387l133 100q146 -179 228.5 -418.5t82.5 -486.5q0 -248 -82.5 -488.5t-228.5 -417.5z" />
<glyph unicode="*" horiz-adv-x="708" d="M412 770h-115l10 229l-192 -125l-56 99l203 104l-203 105l56 98l192 -123l-10 229h115l-13 -229l193 123l57 -98l-203 -105l203 -104l-57 -99l-193 125z" />
<glyph unicode="+" horiz-adv-x="1028" d="M969 621h-379v-424h-152v424h-379v139h379v409h152v-409h379v-139z" />
<glyph unicode="," d="M406 78q0 -103 -53 -195.5t-140 -154.5l-96 79q50 30 93.5 85.5t53.5 107.5q-18 -6 -35 -6q-53 0 -88 36t-35 93q0 58 41.5 99.5t98.5 41.5q66 0 113 -50t47 -136z" />
<glyph unicode="-" horiz-adv-x="614" d="M553 403h-492v185h492v-185z" />
<glyph unicode="." d="M250 -23q-58 0 -101 42.5t-43 101.5q0 58 42.5 100.5t101.5 42.5q58 0 100.5 -42t42.5 -101t-42.5 -101.5t-100.5 -42.5z" />
<glyph unicode="/" horiz-adv-x="645" d="M160 -41h-160l485 1448h160z" />
<glyph unicode="0" horiz-adv-x="1261" d="M631 -25q-111 0 -203.5 40.5t-155 109t-106 160t-63 191.5t-19.5 206t19.5 205.5t63 190.5t106 159t155 108.5t203.5 40.5t203.5 -40.5t155 -108.5t106 -159t63 -190.5t19.5 -205.5t-19.5 -206t-63 -191.5t-106 -160t-155 -109t-203.5 -40.5zM631 188q81 0 141 40 t94.5 110.5t51 156t16.5 187.5t-16.5 187.5t-51 155.5t-94.5 109.5t-141 39.5t-141 -39.5t-94.5 -109.5t-51 -155.5t-16.5 -187.5t16.5 -187.5t51 -156t94.5 -110.5t141 -40z" />
<glyph unicode="1" horiz-adv-x="778" d="M633 0h-240v1055l-223 -232l-139 146l393 397h209v-1366z" />
<glyph unicode="2" horiz-adv-x="1218" d="M1092 0h-990v188q145 110 240 184t186 151t143 131t94 110t58.5 104t16.5 97q0 101 -73 155t-175 54q-225 0 -369 -164l-139 157q88 106 222.5 162.5t281.5 56.5q135 0 245.5 -47.5t180 -145t69.5 -228.5q0 -92 -40 -183.5t-123 -186t-185 -184t-250 -200.5h607v-211z " />
<glyph unicode="3" horiz-adv-x="1175" d="M565 -25q-174 0 -308 62t-208 160l129 157q66 -77 168 -121.5t211 -44.5q134 0 209.5 56.5t75.5 152.5q0 193 -303 193q-138 0 -158 -2v215q25 -2 158 -2q127 0 203.5 45t76.5 135q0 92 -77.5 142.5t-198.5 50.5q-201 0 -353 -152l-122 149q83 98 209 156.5t288 58.5 q224 0 359 -99t135 -269q0 -65 -26 -121.5t-69.5 -94.5t-95 -62.5t-106.5 -34.5q52 -5 106 -28t102 -62.5t78.5 -103t30.5 -138.5q0 -176 -140.5 -287t-373.5 -111z" />
<glyph unicode="4" horiz-adv-x="1187" d="M948 0h-239v309h-652v193l561 864h330v-846h182v-211h-182v-309zM709 520v631l-416 -631h416z" />
<glyph unicode="5" horiz-adv-x="1228" d="M623 -25q-329 0 -508 211l137 164q143 -162 369 -162q126 0 203 69t77 171q0 111 -74.5 177.5t-199.5 66.5q-174 0 -299 -119l-170 49v764h895v-211h-656v-395q52 52 134 85.5t176 33.5q116 0 214 -51t160 -153t62 -237q0 -211 -144.5 -337t-375.5 -126z" />
<glyph unicode="6" horiz-adv-x="1230" d="M647 -25q-117 0 -212 37t-159.5 101.5t-108.5 154.5t-63.5 193t-19.5 219q0 201 67 358.5t205 252.5t330 95q239 0 393 -151l-112 -182q-58 61 -123 91t-158 30q-110 0 -193 -63t-125 -164.5t-42 -223.5q0 -27 2 -39q50 76 151 133t215 57q93 0 175 -28.5t145.5 -82 t100 -138.5t36.5 -191q0 -195 -140 -327t-364 -132zM635 188q126 0 200 73t74 165q0 120 -79.5 182t-200.5 62q-87 0 -166.5 -44t-132.5 -118q4 -47 16.5 -90t36.5 -86t57.5 -74t83.5 -50.5t111 -19.5z" />
<glyph unicode="7" horiz-adv-x="1089" d="M510 0h-262l516 1155h-709v211h985v-166z" />
<glyph unicode="8" horiz-adv-x="1218" d="M610 -25q-144 0 -260.5 41.5t-190 128t-73.5 205.5q0 124 87 217.5t220 137.5q-127 40 -205.5 120.5t-78.5 202.5q0 91 43.5 161.5t116 112.5t159.5 63t182 21q74 0 144.5 -12.5t136 -41t114 -69.5t78 -101.5t29.5 -133.5q0 -122 -79.5 -202t-207.5 -121 q133 -44 220.5 -137.5t87.5 -217.5q0 -118 -73.5 -204.5t-190.5 -128.5t-259 -42zM610 799q39 6 77 18.5t82 34t71.5 58t27.5 81.5q0 84 -73 133.5t-185 49.5q-115 0 -187.5 -49t-72.5 -134q0 -45 27.5 -81.5t72 -58.5t83 -34t77.5 -18zM610 188q118 0 199.5 53t81.5 140 q0 50 -31.5 91.5t-78.5 66t-91 39t-80 18.5q-28 -3 -62.5 -12.5t-74 -27.5t-71 -41t-53 -58.5t-21.5 -75.5q0 -87 81 -140t201 -53z" />
<glyph unicode="9" horiz-adv-x="1230" d="M543 -23q-239 0 -391 152l110 180q58 -59 123.5 -89t157.5 -30q90 0 160.5 38.5t113 103t64.5 143t22 164.5v41q-52 -77 -153 -135t-213 -58q-126 0 -228.5 49t-166.5 151.5t-64 242.5q0 126 61.5 230t177.5 166.5t265 62.5q117 0 212 -37t159.5 -102t108.5 -155 t63.5 -193t19.5 -220q0 -118 -24.5 -224t-74 -194t-120.5 -152t-169 -99.5t-214 -35.5zM600 694q87 0 167.5 43t131.5 117q-5 59 -24 113t-53.5 102.5t-93.5 77.5t-134 29q-125 0 -198.5 -74t-73.5 -164q0 -119 79.5 -181.5t198.5 -62.5z" />
<glyph unicode=":" d="M250 717q-59 0 -101.5 42.5t-42.5 100.5t43 101t101 43t100.5 -42.5t42.5 -101.5q0 -58 -42.5 -100.5t-100.5 -42.5zM250 -23q-58 0 -101 42.5t-43 101.5q0 58 42.5 100.5t101.5 42.5q58 0 100.5 -42t42.5 -101t-42.5 -101.5t-100.5 -42.5z" />
<glyph unicode=";" d="M250 717q-58 0 -101 43t-43 100q0 58 43 101t101 43t100.5 -42.5t42.5 -101.5q0 -57 -42.5 -100t-100.5 -43zM406 84q0 -103 -53 -195.5t-140 -154.5l-96 80q51 30 94 85.5t53 106.5q-18 -6 -35 -6q-53 0 -88 36t-35 93q0 58 41.5 99.5t98.5 41.5q66 0 113 -50t47 -136z " />
<glyph unicode="&#x3c;" horiz-adv-x="1028" d="M969 184l-910 424v154l910 426v-166l-748 -338l748 -336v-164z" />
<glyph unicode="=" horiz-adv-x="1028" d="M969 809h-910v139h910v-139zM969 420h-910v137h910v-137z" />
<glyph unicode="&#x3e;" horiz-adv-x="1028" d="M969 608l-910 -424v164l746 336l-746 338v166l910 -426v-154z" />
<glyph unicode="?" horiz-adv-x="937" d="M387 401q-74 71 -74 174q0 51 18 94.5t47.5 74.5t64.5 58.5t70 52t64.5 49.5t47.5 56t18 66q0 64 -49.5 106t-144.5 42q-168 0 -285 -144l-137 154q79 96 194 149t252 53q190 0 303 -90t113 -231q0 -71 -27 -130t-68 -96.5t-88.5 -74t-88.5 -64.5t-68 -66t-27 -81 q0 -54 45 -92zM461 -23q-59 0 -101.5 42.5t-42.5 101.5q0 58 42.5 100.5t101.5 42.5t101 -42t42 -101t-42.5 -101.5t-100.5 -42.5z" />
<glyph unicode="@" horiz-adv-x="1603" d="M721 -143q-183 0 -332 85t-233 232t-84 326q0 214 114 401t301.5 296.5t397.5 109.5q189 0 338 -87t228 -231.5t79 -318.5q0 -120 -35 -217.5t-91.5 -156.5t-123 -90.5t-133.5 -31.5q-86 0 -136.5 45.5t-58.5 112.5l-2 12q-55 -77 -137.5 -123.5t-169.5 -46.5 q-144 0 -229.5 94.5t-85.5 245.5q0 136 67.5 253.5t176 185t227.5 67.5q91 0 158.5 -40.5t99.5 -105.5l24 115h193l-111 -522q-4 -24 -4 -47q0 -48 23.5 -73t60.5 -25q32 0 66 19.5t66 58.5t52.5 109.5t20.5 160.5q0 249 -156.5 405t-414.5 156q-115 0 -225.5 -38.5 t-200.5 -107.5t-159 -159t-107 -199.5t-38 -222.5q0 -161 75 -292.5t208.5 -206.5t298.5 -75q198 0 377 113l41 -57q-200 -129 -426 -129zM713 328q150 0 260 155l55 258q-21 49 -68.5 87t-117.5 38q-131 0 -223.5 -103.5t-92.5 -234.5q0 -89 50.5 -144.5t136.5 -55.5z" />
<glyph unicode="A" horiz-adv-x="1378" d="M1374 0h-272l-101 262h-626l-101 -262h-272l537 1366h299zM934 473l-246 651l-246 -651h492z" />
<glyph unicode="B" horiz-adv-x="1327" d="M836 0h-691v1366h672q182 0 285.5 -99t103.5 -249q0 -124 -68.5 -208t-168.5 -105q110 -17 187 -114t77 -222q0 -163 -105 -266t-292 -103zM768 801q90 0 141.5 49t51.5 127q0 79 -51.5 128.5t-141.5 49.5h-383v-354h383zM778 211q98 0 153.5 50.5t55.5 139.5 q0 81 -55 135t-154 54h-393v-379h393z" />
<glyph unicode="C" horiz-adv-x="1396" d="M801 -25q-150 0 -282 52t-228 143.5t-151.5 224.5t-55.5 287t55.5 287t151.5 224.5t228 143.5t282 52q357 0 549 -308l-205 -104q-51 88 -144 143.5t-200 55.5q-203 0 -337 -139.5t-134 -354.5t134 -354.5t337 -139.5q108 0 200.5 55t143.5 144l205 -104 q-195 -308 -549 -308z" />
<glyph unicode="D" horiz-adv-x="1454" d="M653 0h-508v1366h508q210 0 373 -87t252.5 -242.5t89.5 -354.5t-89.5 -354t-252.5 -241.5t-373 -86.5zM653 211q144 0 252 64.5t162.5 170.5t54.5 236q0 206 -124 339.5t-345 133.5h-268v-944h268z" />
<glyph unicode="E" horiz-adv-x="1181" d="M1081 0h-936v1366h936v-211h-696v-354h682v-211h-682v-379h696v-211z" />
<glyph unicode="F" horiz-adv-x="1150" d="M385 0h-240v1366h936v-211h-696v-354h682v-211h-682v-590z" />
<glyph unicode="G" horiz-adv-x="1468" d="M801 -27q-198 0 -360.5 87t-259.5 250t-97 372q0 157 56.5 290.5t153.5 224t228.5 141.5t278.5 51q351 0 551 -285l-197 -111q-57 81 -150 132t-204 51q-203 0 -337 -139.5t-134 -354.5t134 -355.5t337 -140.5q96 0 183 37t140 86v213h-407v211h647v-512 q-105 -117 -247.5 -182.5t-315.5 -65.5z" />
<glyph unicode="H" horiz-adv-x="1480" d="M1335 0h-239v596h-711v-596h-240v1366h240v-559h711v559h239v-1366z" />
<glyph unicode="I" horiz-adv-x="530" d="M385 0h-240v1366h240v-1366z" />
<glyph unicode="J" horiz-adv-x="985" d="M379 -25q-227 0 -363 144l111 182q105 -113 233 -113q110 0 175 67.5t65 180.5v930h240v-934q0 -225 -127 -341t-334 -116z" />
<glyph unicode="K" horiz-adv-x="1271" d="M1257 0h-294l-459 575l-119 -139v-436h-240v1366h240v-651l535 651h297l-555 -645z" />
<glyph unicode="L" horiz-adv-x="1058" d="M987 0h-842v1366h240v-1155h602v-211z" />
<glyph unicode="M" horiz-adv-x="1710" d="M1565 0h-240v1014l-420 -1014h-102l-418 1014v-1014h-240v1366h338l371 -899l373 899h338v-1366z" />
<glyph unicode="N" horiz-adv-x="1474" d="M1329 0h-231l-713 975v-975h-240v1366h246l699 -948v948h239v-1366z" />
<glyph unicode="O" horiz-adv-x="1566" d="M782 -25q-202 0 -361.5 91t-248 252.5t-88.5 363.5t88.5 363.5t248 252.5t361.5 91q151 0 281.5 -53.5t222 -147t143.5 -224.5t52 -282t-52 -282t-143.5 -224.5t-222 -147t-281.5 -53.5zM782 188q203 0 328 140t125 354q0 215 -125 354.5t-328 139.5q-204 0 -328 -139 t-124 -355q0 -214 124 -354t328 -140z" />
<glyph unicode="P" horiz-adv-x="1245" d="M385 0h-240v1366h600q207 0 327 -123.5t120 -304.5t-120.5 -304.5t-326.5 -123.5h-360v-510zM713 721q102 0 167.5 60t65.5 157t-65.5 157t-167.5 60h-328v-434h328z" />
<glyph unicode="Q" horiz-adv-x="1566" d="M782 -25q-202 0 -361.5 91t-248 252.5t-88.5 363.5t88.5 363.5t248 252.5t361.5 91q151 0 281.5 -53.5t222 -147t143.5 -224.5t52 -282q0 -293 -183 -492l113 -127l-166 -139l-119 133q-152 -82 -344 -82zM782 188q106 0 193 41l-168 193l166 137l168 -192q94 129 94 315 q0 215 -125 354.5t-328 139.5q-204 0 -328 -139t-124 -355q0 -214 124 -354t328 -140z" />
<glyph unicode="R" horiz-adv-x="1286" d="M1202 0h-276l-303 510h-238v-510h-240v1366h600q201 0 324 -119t123 -309q0 -88 -27 -161t-73.5 -121.5t-103 -78.5t-120.5 -40zM713 721q102 0 167.5 60t65.5 157t-65.5 157t-167.5 60h-328v-434h328z" />
<glyph unicode="S" horiz-adv-x="1216" d="M612 -25q-351 0 -555 218l133 184q78 -83 189 -136t244 -53q137 0 205.5 55.5t68.5 131.5q0 46 -27.5 80t-73.5 55.5t-105.5 38.5t-126 33.5t-132.5 36t-125.5 50t-105.5 71t-73.5 103.5t-27.5 144q0 171 138.5 285t359.5 114q316 0 512 -190l-137 -178 q-77 77 -180.5 116.5t-214.5 39.5q-105 0 -168.5 -46.5t-63.5 -123.5q0 -40 27 -70.5t73 -50t106 -36t125.5 -33.5t131.5 -37.5t126 -52.5t106 -74t73 -106.5t27 -146.5q0 -87 -31.5 -162t-94 -134t-166 -92.5t-237.5 -33.5z" />
<glyph unicode="T" horiz-adv-x="1181" d="M711 0h-240v1155h-414v211h1067v-211h-413v-1155z" />
<glyph unicode="U" horiz-adv-x="1472" d="M737 -25q-290 0 -441 152t-151 412v827h242v-819q0 -166 90.5 -262.5t259.5 -96.5q167 0 257.5 96.5t90.5 262.5v819h242v-825q0 -262 -150.5 -414t-439.5 -152z" />
<glyph unicode="V" horiz-adv-x="1378" d="M838 0h-299l-537 1366h272l414 -1106l414 1106h272z" />
<glyph unicode="W" horiz-adv-x="1849" d="M1446 0h-256l-266 1008l-265 -1008h-256l-391 1366h269l266 -1053l282 1053h191l283 -1053l264 1053h268z" />
<glyph unicode="X" horiz-adv-x="1353" d="M1346 0h-287l-383 535l-383 -535h-287l512 700l-481 666h287l352 -502l350 502h289l-479 -664z" />
<glyph unicode="Y" horiz-adv-x="1304" d="M772 0h-240v567l-530 799h274l377 -586l373 586h274l-528 -799v-567z" />
<glyph unicode="Z" horiz-adv-x="1206" d="M1114 0h-1024v195l698 960h-698v211h1010v-195l-699 -960h713v-211z" />
<glyph unicode="[" horiz-adv-x="540" d="M506 -389h-416v1778h416v-148h-258v-1483h258v-147z" />
<glyph unicode="\" horiz-adv-x="645" d="M485 -41l-485 1448h160l485 -1448h-160z" />
<glyph unicode="]" horiz-adv-x="540" d="M451 -389h-416v147h258v1483h-258v148h416v-1778z" />
<glyph unicode="^" horiz-adv-x="894" d="M856 682h-164l-246 535l-243 -535h-164l330 684h159z" />
<glyph unicode="_" horiz-adv-x="1155" d="M1161 -229h-1167v147h1167v-147z" />
<glyph unicode="`" horiz-adv-x="491" d="M492 1139h-154l-338 295h205z" />
<glyph unicode="a" horiz-adv-x="1097" d="M958 0h-215v106q-56 -63 -138.5 -97t-180.5 -34q-62 0 -122 21t-110.5 60.5t-81 103.5t-30.5 143q0 82 30.5 145.5t81 101t110 56.5t122.5 19q210 0 319 -127v147q0 85 -63.5 134.5t-167.5 49.5q-166 0 -293 -124l-88 149q169 160 416 160q86 0 157.5 -19.5t129.5 -60 t91 -112t33 -167.5v-655zM508 123q73 0 136 26.5t99 75.5v150q-36 49 -99 75.5t-136 26.5q-92 0 -151.5 -48.5t-59.5 -129.5q0 -79 59.5 -127.5t151.5 -48.5z" />
<glyph unicode="b" horiz-adv-x="1189" d="M354 297q36 -56 108 -93.5t146 -37.5q128 0 204.5 91t76.5 237t-76.5 237.5t-204.5 91.5q-74 0 -146 -39t-108 -96v-391zM354 0h-215v1366h215v-514q58 78 141 120t177 42q193 0 315.5 -142t122.5 -378q0 -240 -122.5 -379.5t-315.5 -139.5q-95 0 -177.5 42.5 t-140.5 117.5v-135z" />
<glyph unicode="c" horiz-adv-x="1017" d="M590 -25q-225 0 -368.5 147t-143.5 374q0 225 143.5 371.5t368.5 146.5q248 0 379 -176l-142 -131q-82 116 -227 116q-134 0 -216.5 -91t-82.5 -236q0 -146 82.5 -238t216.5 -92q142 0 227 117l142 -131q-132 -177 -379 -177z" />
<glyph unicode="d" horiz-adv-x="1189" d="M1051 0h-215v135q-58 -75 -141 -117.5t-177 -42.5q-195 0 -317.5 139.5t-122.5 379.5q0 236 122.5 378t317.5 142q92 0 175 -42t143 -120v514h215v-1366zM580 166q75 0 147 37.5t109 93.5v393q-38 57 -109.5 95t-146.5 38q-126 0 -202.5 -91.5t-76.5 -237.5 q0 -144 76.5 -236t202.5 -92z" />
<glyph unicode="e" horiz-adv-x="1140" d="M596 -25q-225 0 -371.5 144.5t-146.5 376.5q0 142 63.5 260.5t179.5 188t259 69.5q220 0 353.5 -151.5t133.5 -387.5v-51h-764q13 -117 96.5 -194.5t218.5 -77.5q75 0 152.5 28.5t128.5 79.5l98 -141q-73 -70 -177 -107t-224 -37zM858 575q-2 46 -18.5 90.5t-48.5 84.5 t-86.5 64t-124.5 24q-66 0 -119.5 -23.5t-86 -63t-51 -84t-22.5 -92.5h557z" />
<glyph unicode="f" horiz-adv-x="630" d="M406 0h-216v801h-163v188h163v55q0 159 85.5 250.5t228.5 91.5q154 0 237 -86l-84 -133q-46 43 -114 43q-64 0 -100.5 -42t-36.5 -124v-55h200v-188h-200v-801z" />
<glyph unicode="g" horiz-adv-x="1187" d="M541 -401q-131 0 -228.5 33t-185.5 114l100 156q110 -127 314 -127q56 0 105.5 14t93 43.5t69 83.5t25.5 127v119q-59 -76 -141.5 -120t-176.5 -44q-194 0 -316 134.5t-122 373.5q0 235 122 371.5t316 136.5q94 0 176 -42t142 -120v137h215v-938q0 -103 -30 -183.5 t-78.5 -130t-116 -81.5t-136.5 -44.5t-147 -12.5zM580 188q74 0 146 39t108 95v368q-36 56 -108 94.5t-146 38.5q-127 0 -203 -87t-76 -230t76 -230.5t203 -87.5z" />
<glyph unicode="h" horiz-adv-x="1163" d="M1024 0h-215v623q0 109 -51.5 154.5t-149.5 45.5q-77 0 -144.5 -38.5t-109.5 -94.5v-690h-215v1366h215v-512q56 66 149 113t202 47q159 0 239 -80t80 -234v-700z" />
<glyph unicode="i" horiz-adv-x="493" d="M246 1110q-54 0 -93.5 39t-39.5 94t39.5 94t93.5 39q56 0 94.5 -39t38.5 -94t-38.5 -94t-94.5 -39zM354 0h-215v989h215v-989z" />
<glyph unicode="j" horiz-adv-x="493" d="M246 1110q-54 0 -93.5 39t-39.5 94t39.5 94t93.5 39q56 0 94.5 -39t38.5 -94t-38.5 -94t-94.5 -39zM27 -401q-82 0 -131 16t-103 55l64 160q62 -55 137 -55q66 0 105.5 42t39.5 126v1046h215v-1046q0 -161 -83.5 -252.5t-243.5 -91.5z" />
<glyph unicode="k" horiz-adv-x="1077" d="M1065 0h-270l-303 408l-138 -142v-266h-215v1366h215v-854l437 477h266l-412 -448z" />
<glyph unicode="l" horiz-adv-x="493" d="M354 0h-215v1366h215v-1366z" />
<glyph unicode="m" horiz-adv-x="1705" d="M1567 0h-215v645q0 83 -39.5 130.5t-122.5 47.5q-67 0 -130 -39.5t-99 -91.5v-692h-216v645q0 178 -163 178q-66 0 -128.5 -39.5t-99.5 -93.5v-690h-215v989h215v-135q37 56 128.5 108t193.5 52q107 0 175.5 -49t94.5 -134q47 74 139.5 128.5t196.5 54.5q138 0 211.5 -75 t73.5 -224v-715z" />
<glyph unicode="n" horiz-adv-x="1161" d="M1022 0h-215v618q0 110 -51.5 157.5t-147.5 47.5q-78 0 -146 -38.5t-108 -94.5v-690h-215v989h215v-135q56 66 148 113t200 47q158 0 239 -82t81 -236v-696z" />
<glyph unicode="o" horiz-adv-x="1173" d="M586 -25q-115 0 -211 41.5t-160.5 112t-100.5 165.5t-36 202q0 106 36 200.5t100.5 165t160.5 111.5t211 41q154 0 271.5 -71t178 -187.5t60.5 -259.5q0 -144 -60.5 -261.5t-178 -188.5t-271.5 -71zM586 166q133 0 209.5 95.5t76.5 234.5q0 137 -76.5 232t-209.5 95 q-131 0 -208 -95t-77 -232q0 -138 77 -234t208 -96z" />
<glyph unicode="p" horiz-adv-x="1183" d="M672 -25q-94 0 -176 41.5t-142 120.5v-514h-215v1366h215v-135q56 75 139.5 117.5t178.5 42.5q196 0 317 -139t121 -379q0 -241 -121.5 -381t-316.5 -140zM608 166q126 0 202.5 92t76.5 238q0 144 -76.5 235.5t-202.5 91.5q-74 0 -146 -38.5t-108 -94.5v-391 q36 -55 108.5 -94t145.5 -39z" />
<glyph unicode="q" horiz-adv-x="1183" d="M575 166q73 0 145.5 39t108.5 94v391q-36 56 -108 94.5t-146 38.5q-126 0 -202 -91.5t-76 -235.5q0 -146 76 -238t202 -92zM512 -25q-195 0 -316.5 140t-121.5 381q0 240 121 379t317 139q95 0 177.5 -42.5t139.5 -117.5v135h215v-1366h-215v514q-122 -162 -317 -162z " />
<glyph unicode="r" horiz-adv-x="710" d="M354 0h-215v989h215v-145q59 74 144 121t178 47v-213q-27 6 -68 6q-68 0 -145 -39.5t-109 -91.5v-674z" />
<glyph unicode="s" horiz-adv-x="966" d="M477 -25q-127 0 -237.5 40t-186.5 114l99 156q56 -57 149.5 -98.5t185.5 -41.5q94 0 144.5 37t50.5 97q0 39 -33 65t-85.5 40.5t-116.5 27.5t-128 33t-116.5 50t-85.5 85.5t-33 132.5q0 127 104 214t285 87q227 0 385 -140l-90 -151q-46 53 -124.5 86t-168.5 33 q-84 0 -134 -34t-50 -87q0 -31 25.5 -53t67.5 -34t96 -25.5t110 -25t110 -35.5t96 -55.5t67.5 -85.5t25.5 -124q0 -135 -109 -221.5t-303 -86.5z" />
<glyph unicode="t" horiz-adv-x="653" d="M436 -25q-124 0 -189 65.5t-65 188.5v572h-164v188h164v271h215v-271h201v-188h-201v-518q0 -52 25 -84.5t70 -32.5q29 0 56 10.5t40 24.5l51 -162q-67 -64 -203 -64z" />
<glyph unicode="u" horiz-adv-x="1161" d="M1022 0h-215v131q-60 -67 -150.5 -111.5t-199.5 -44.5q-158 0 -238 80t-80 234v700h215v-622q0 -110 51 -155.5t148 -45.5q77 0 145 37t109 92v694h215v-989z" />
<glyph unicode="v" horiz-adv-x="1030" d="M631 0h-232l-403 989h229l289 -741l289 741h231z" />
<glyph unicode="w" horiz-adv-x="1544" d="M1227 0h-226l-229 725l-229 -725h-226l-307 989h223l209 -719l236 719h188l236 -719l209 719h223z" />
<glyph unicode="x" horiz-adv-x="1015" d="M1006 0h-242l-256 365l-258 -365h-240l363 508l-342 481h241l236 -336l233 336h242l-342 -481z" />
<glyph unicode="y" horiz-adv-x="1030" d="M96 -387l33 192q37 -16 82 -16q53 0 86.5 19t54.5 67l49 113l-405 1001h229l289 -741l289 741h231l-477 -1167q-49 -120 -133 -170.5t-207 -52.5q-67 0 -121 14z" />
<glyph unicode="z" horiz-adv-x="974" d="M879 0h-785v162l490 639h-490v188h776v-158l-493 -645h502v-186z" />
<glyph unicode="{" horiz-adv-x="565" d="M530 -389h-124q-118 0 -204.5 83.5t-86.5 219.5v383q0 60 -27.5 99.5t-79.5 39.5v127q52 0 79.5 39.5t27.5 99.5v381q0 136 86.5 221t204.5 85h124v-148h-124q-55 0 -93.5 -44.5t-38.5 -113.5v-401q0 -142 -94 -182q94 -40 94 -183v-401q0 -68 38.5 -113t93.5 -45h124 v-147z" />
<glyph unicode="|" horiz-adv-x="438" d="M293 -41h-148v1448h148v-1448z" />
<glyph unicode="}" horiz-adv-x="565" d="M35 -389v147h125q55 0 93 45t38 113v401q0 143 94 183q-94 40 -94 182v401q0 69 -38 113.5t-93 44.5h-125v148h125q118 0 204.5 -85t86.5 -221v-381q0 -60 27 -99.5t79 -39.5v-127q-52 0 -79 -39.5t-27 -99.5v-383q0 -136 -86.5 -219.5t-204.5 -83.5h-125z" />
<glyph unicode="~" horiz-adv-x="1038" d="M834 1366l149 -18q-7 -82 -17.5 -147t-32 -132.5t-52.5 -112.5t-80.5 -73.5t-112.5 -28.5q-61 0 -106 27.5t-67.5 69t-42 90t-32.5 90t-35.5 69t-54.5 27.5q-111 0 -145 -375l-152 18q6 67 15 122.5t24 114.5t37 103t52.5 80t73 55t95.5 19t93.5 -20.5t64.5 -54 t41.5 -73.5t30.5 -79.5t26.5 -73t33.5 -54t48 -20.5q117 0 146 377z" />
<glyph unicode="&#xa2;" horiz-adv-x="1017" d="M504 -205v187q-191 28 -308.5 169t-117.5 345q0 201 117.5 342t308.5 170v149h160v-147q194 -23 305 -172l-142 -131q-65 89 -163 110v-645q97 21 163 111l142 -131q-111 -149 -305 -172v-185h-160zM301 496q0 -117 54.5 -202t148.5 -114v629q-94 -31 -148.5 -114 t-54.5 -199z" />
<glyph unicode="&#xa3;" horiz-adv-x="1097" d="M43 549v143h170q-38 49 -59 81.5t-40.5 86.5t-19.5 111q0 119 69 215.5t178.5 148t233.5 51.5q158 0 273 -60.5t176 -178.5l-190 -113q-27 67 -90 111.5t-142 44.5q-104 0 -176 -61.5t-72 -161.5q0 -35 6.5 -66t23 -62t27.5 -48.5t36 -52t34 -46.5h301v-143h-237 q6 -27 6 -60q0 -78 -39.5 -141t-103.5 -104q50 16 104 16q64 0 147 -37t136 -37q61 0 110 23.5t74 54.5l96 -190q-97 -101 -291 -101q-60 0 -114 14.5t-86.5 32t-77.5 32t-90 14.5q-91 0 -240 -80l-82 168q114 53 179 125t65 155q0 56 -27 115h-268z" />
<glyph unicode="&#xa5;" horiz-adv-x="1304" d="M772 0h-240v242h-485v137h485v188h-485v138h393l-438 661h274l377 -586l373 586h274l-438 -661h398v-138h-488v-188h488v-137h-488v-242z" />
<glyph unicode="&#xa8;" horiz-adv-x="583" d="M627 1245q0 -51 -35.5 -86t-85.5 -35t-85.5 35t-35.5 86q0 49 35.5 84t85.5 35t85.5 -35t35.5 -84zM197 1245q0 -51 -34.5 -86t-84.5 -35q-51 0 -86 35t-35 86q0 50 35 84.5t86 34.5q50 0 84.5 -35t34.5 -84z" />
<glyph unicode="&#xa9;" horiz-adv-x="1593" d="M1503 684q0 -143 -56 -274t-150 -226t-225 -151t-275 -56q-191 0 -354 95t-258 258t-95 354q0 192 95 355t258 257.5t354 94.5q144 0 275 -56t225 -150.5t150 -225.5t56 -275zM1434 684q0 129 -50.5 247t-136 203.5t-203.5 136t-247 50.5t-247 -50.5t-203.5 -136 t-136 -203.5t-50.5 -247t50.5 -247t136 -203.5t203.5 -136t247 -50.5t247 50.5t203.5 136t136 203.5t50.5 247zM1049 444l59 -57q-118 -137 -303 -137q-178 0 -302 125t-124 311t123.5 309t302.5 123q185 0 301 -135l-59 -57q-40 54 -105 85t-137 31q-140 0 -240 -100 t-100 -256q0 -154 100.5 -257t239.5 -103q73 0 138.5 32t105.5 86z" />
<glyph unicode="&#xab;" horiz-adv-x="1001" d="M940 129h-203l-327 369l327 362h203l-328 -362zM592 129h-203l-328 369l328 362h203l-328 -362z" />
<glyph unicode="&#xad;" horiz-adv-x="614" d="M553 403h-492v185h492v-185z" />
<glyph unicode="&#xae;" horiz-adv-x="1011" d="M940 952q0 -180 -126.5 -307t-307.5 -127q-180 0 -307 127t-127 307q0 181 127 307.5t307 126.5q119 0 219 -57.5t157.5 -157.5t57.5 -219zM877 952q0 155 -108.5 263t-262.5 108q-155 0 -264 -108t-109 -263q0 -154 109 -263t264 -109q154 0 262.5 109t108.5 263z M709 702h-84l-129 197h-88v-197h-68v498h203q65 0 112 -42t47 -109q0 -72 -46 -110t-81 -38zM633 1049q0 39 -28 65.5t-62 26.5h-135v-180h135q34 0 62 25.5t28 62.5z" />
<glyph unicode="&#xb4;" horiz-adv-x="491" d="M492 1434l-338 -295h-154l287 295h205z" />
<glyph unicode="&#xb8;" horiz-adv-x="438" d="M217 -397q-67 0 -125.5 18t-91.5 45l45 94q73 -59 166 -59q47 0 81 19.5t34 54.5q0 61 -68 61q-42 0 -70 -31l-84 48l64 170h113l-54 -132q33 23 74 23q59 0 98 -39.5t39 -101.5q0 -76 -64 -123t-157 -47z" />
<glyph unicode="&#xbb;" horiz-adv-x="1001" d="M592 498l-328 -369h-203l328 369l-328 362h203zM940 498l-328 -369h-202l327 369l-327 362h202z" />
<glyph unicode="&#xc2;" horiz-adv-x="1378" d="M983 1481h-137l-158 196l-153 -196h-136l191 295h196zM1374 0h-272l-101 262h-626l-101 -262h-272l537 1366h299zM934 473l-246 651l-246 -651h492z" />
<glyph unicode="&#xc7;" horiz-adv-x="1396" d="M788 -389q-67 0 -125.5 18t-91.5 45l45 95q75 -60 166 -60q47 0 81 19.5t34 54.5q0 61 -68 61q-42 0 -69 -30l-84 47l43 119q-135 13 -252 70t-201.5 147t-133 215.5t-48.5 269.5q0 154 55.5 287t151.5 224.5t228 143.5t282 52q357 0 549 -308l-205 -104 q-51 88 -144 143.5t-200 55.5q-203 0 -337 -139.5t-134 -354.5t134 -354.5t337 -139.5q108 0 200.5 55t143.5 144l205 -104q-187 -295 -521 -308l-30 -75q31 22 73 22q59 0 98.5 -39.5t39.5 -101.5q0 -76 -64.5 -123t-157.5 -47z" />
<glyph unicode="&#xce;" horiz-adv-x="530" d="M559 1481h-137l-158 196l-153 -196h-136l191 295h196zM385 0h-240v1366h240v-1366z" />
<glyph unicode="&#xd6;" horiz-adv-x="1566" d="M1118 1587q0 -51 -35.5 -86t-85.5 -35t-85 35t-35 86q0 49 35 84t85 35t85.5 -35t35.5 -84zM688 1587q0 -51 -34.5 -86t-84.5 -35q-51 0 -85.5 35t-34.5 86q0 50 34.5 84.5t85.5 34.5q49 0 84 -35t35 -84zM782 -25q-202 0 -361.5 91t-248 252.5t-88.5 363.5t88.5 363.5 t248 252.5t361.5 91q151 0 281.5 -53.5t222 -147t143.5 -224.5t52 -282t-52 -282t-143.5 -224.5t-222 -147t-281.5 -53.5zM782 188q203 0 328 140t125 354q0 215 -125 354.5t-328 139.5q-204 0 -328 -139t-124 -355q0 -214 124 -354t328 -140z" />
<glyph unicode="&#xdb;" horiz-adv-x="1472" d="M1032 1481h-137l-158 196l-153 -196h-135l190 295h197zM737 -25q-290 0 -441 152t-151 412v827h242v-819q0 -166 90.5 -262.5t259.5 -96.5q167 0 257.5 96.5t90.5 262.5v819h242v-825q0 -262 -150.5 -414t-439.5 -152z" />
<glyph unicode="&#xdc;" horiz-adv-x="1472" d="M1075 1587q0 -51 -35.5 -86t-85.5 -35t-85 35t-35 86q0 49 35 84t85 35t85.5 -35t35.5 -84zM645 1587q0 -51 -34.5 -86t-84.5 -35q-51 0 -85.5 35t-34.5 86q0 50 34.5 84.5t85.5 34.5q50 0 84.5 -35t34.5 -84zM737 -25q-290 0 -441 152t-151 412v827h242v-819 q0 -166 90.5 -262.5t259.5 -96.5q167 0 257.5 96.5t90.5 262.5v819h242v-825q0 -262 -150.5 -414t-439.5 -152z" />
<glyph unicode="&#xe2;" horiz-adv-x="1097" d="M958 0h-215v106q-56 -63 -138.5 -97t-180.5 -34q-62 0 -122 21t-110.5 60.5t-81 103.5t-30.5 143q0 82 30.5 145.5t81 101t110 56.5t122.5 19q210 0 319 -127v147q0 85 -63.5 134.5t-167.5 49.5q-166 0 -293 -124l-88 149q169 160 416 160q86 0 157.5 -19.5t129.5 -60 t91 -112t33 -167.5v-655zM508 123q73 0 136 26.5t99 75.5v150q-36 49 -99 75.5t-136 26.5q-92 0 -151.5 -48.5t-59.5 -129.5q0 -79 59.5 -127.5t151.5 -48.5zM840 1139h-138l-157 196l-154 -196h-135l190 295h197z" />
<glyph unicode="&#xe7;" horiz-adv-x="1017" d="M594 -393q-67 0 -125.5 18t-91.5 45l45 94q73 -59 166 -59q47 0 80.5 19.5t33.5 54.5q0 61 -67 61q-43 0 -70 -30l-84 47l45 123q-200 20 -324 163t-124 353q0 225 143.5 371.5t368.5 146.5q248 0 379 -176l-142 -131q-82 116 -227 116q-134 0 -216.5 -91t-82.5 -236 q0 -146 82.5 -238t216.5 -92q142 0 227 117l142 -131q-117 -159 -332 -175l-33 -81q31 22 74 22q59 0 98 -39.5t39 -101.5q0 -76 -64 -123t-157 -47z" />
<glyph unicode="&#xee;" horiz-adv-x="493" d="M539 1139h-138l-157 196l-154 -196h-135l190 295h197zM354 0h-215v989h215v-989z" />
<glyph unicode="&#xf6;" horiz-adv-x="1173" d="M922 1245q0 -51 -35.5 -86t-85.5 -35t-85.5 35t-35.5 86q0 49 35.5 84t85.5 35t85.5 -35t35.5 -84zM492 1245q0 -51 -34.5 -86t-84.5 -35q-51 0 -86 35t-35 86q0 50 35 84.5t86 34.5q49 0 84 -35t35 -84zM586 -25q-115 0 -211 41.5t-160.5 112t-100.5 165.5t-36 202 q0 106 36 200.5t100.5 165t160.5 111.5t211 41q154 0 271.5 -71t178 -187.5t60.5 -259.5q0 -144 -60.5 -261.5t-178 -188.5t-271.5 -71zM586 166q133 0 209.5 95.5t76.5 234.5q0 137 -76.5 232t-209.5 95q-131 0 -208 -95t-77 -232q0 -138 77 -234t208 -96z" />
<glyph unicode="&#xfb;" horiz-adv-x="1161" d="M872 1139h-137l-157 196l-154 -196h-135l190 295h197zM1022 0h-215v131q-60 -67 -150.5 -111.5t-199.5 -44.5q-158 0 -238 80t-80 234v700h215v-622q0 -110 51 -155.5t148 -45.5q77 0 145 37t109 92v694h215v-989z" />
<glyph unicode="&#xfc;" horiz-adv-x="1161" d="M913 1245q0 -51 -35 -86t-85 -35t-85.5 35t-35.5 86q0 49 35.5 84t85.5 35t85 -35t35 -84zM483 1245q0 -51 -34 -86t-84 -35q-51 0 -86 35t-35 86q0 50 35 84.5t86 34.5q49 0 83.5 -34.5t34.5 -84.5zM1022 0h-215v131q-60 -67 -150.5 -111.5t-199.5 -44.5q-158 0 -238 80 t-80 234v700h215v-622q0 -110 51 -155.5t148 -45.5q77 0 145 37t109 92v694h215v-989z" />
<glyph unicode="&#x11e;" horiz-adv-x="1468" d="M801 -27q-198 0 -360.5 87t-259.5 250t-97 372q0 157 56.5 290.5t153.5 224t228.5 141.5t278.5 51q351 0 551 -285l-197 -111q-57 81 -150 132t-204 51q-203 0 -337 -139.5t-134 -354.5t134 -355.5t337 -140.5q96 0 183 37t140 86v213h-407v211h647v-512 q-105 -117 -247.5 -182.5t-315.5 -65.5zM1163 1616q-62 -84 -155.5 -132t-202.5 -48q-108 0 -202.5 48t-158.5 132l99 82q97 -135 262 -135q81 0 148 35.5t112 99.5z" />
<glyph unicode="&#x11f;" horiz-adv-x="1187" d="M541 -401q-131 0 -228.5 33t-185.5 114l100 156q110 -127 314 -127q56 0 105.5 14t93 43.5t69 83.5t25.5 127v119q-59 -76 -141.5 -120t-176.5 -44q-194 0 -316 134.5t-122 373.5q0 235 122 371.5t316 136.5q94 0 176 -42t142 -120v137h215v-938q0 -103 -30 -183.5 t-78.5 -130t-116 -81.5t-136.5 -44.5t-147 -12.5zM580 188q74 0 146 39t108 95v368q-36 56 -108 94.5t-146 38.5q-127 0 -203 -87t-76 -230t76 -230.5t203 -87.5zM961 1274q-62 -84 -156 -132t-203 -48q-107 0 -201.5 48t-158.5 132l98 82q97 -135 262 -135q81 0 148 35.5 t112 99.5z" />
<glyph unicode="&#x130;" horiz-adv-x="530" d="M385 0h-240v1366h240v-1366zM268 1464q-50 0 -85.5 35t-35.5 86q0 49 35.5 85t85.5 36q49 0 84 -35.5t35 -85.5q0 -51 -34.5 -86t-84.5 -35z" />
<glyph unicode="&#x131;" horiz-adv-x="493" d="M354 0h-215v989h215v-989z" />
<glyph unicode="&#x15e;" horiz-adv-x="1216" d="M594 -397q-67 0 -125.5 18t-91.5 45l45 94q73 -59 166 -59q47 0 80.5 19.5t33.5 54.5q0 61 -67 61q-42 0 -70 -31l-84 48l47 127q-296 23 -471 213l133 184q78 -83 189 -136t244 -53q137 0 205.5 55.5t68.5 131.5q0 46 -27.5 80t-73.5 55.5t-105.5 38.5t-126 33.5 t-132.5 36t-125.5 50t-105.5 71t-73.5 103.5t-27.5 144q0 171 138.5 285t359.5 114q316 0 512 -190l-137 -178q-77 77 -180.5 116.5t-214.5 39.5q-105 0 -168.5 -46.5t-63.5 -123.5q0 -40 27 -70.5t73 -50t106 -36t125.5 -33.5t131.5 -37.5t126 -52.5t106 -74t73 -106.5 t27 -146.5q0 -86 -30 -159t-90 -131.5t-158.5 -93t-225.5 -38.5l-33 -84q33 23 74 23q59 0 98 -39.5t39 -101.5q0 -76 -64 -123t-157 -47z" />
<glyph unicode="&#x15f;" horiz-adv-x="966" d="M475 -397q-67 0 -125.5 18t-91.5 45l45 94q73 -59 166 -59q47 0 81 19.5t34 54.5q0 61 -68 61q-42 0 -70 -31l-84 48l48 124q-224 19 -357 152l99 156q56 -57 149.5 -98.5t185.5 -41.5q94 0 144.5 37t50.5 97q0 39 -33 65t-85.5 40.5t-116.5 27.5t-128 33t-116.5 50 t-85.5 85.5t-33 132.5q0 127 104 214t285 87q227 0 385 -140l-90 -151q-46 53 -124.5 86t-168.5 33q-84 0 -134 -34t-50 -87q0 -31 25.5 -53t67.5 -34t96 -25.5t110 -25t110 -35.5t96 -55.5t67.5 -85.5t25.5 -124q0 -128 -97.5 -212.5t-271.5 -93.5l-35 -86q33 23 74 23 q59 0 98 -39.5t39 -101.5q0 -76 -64 -123t-157 -47z" />
<glyph unicode="&#x2c6;" horiz-adv-x="583" d="M584 1139h-138l-157 196l-154 -196h-135l190 295h197z" />
<glyph unicode="&#x2da;" horiz-adv-x="415" d="M209 1098q-86 0 -147.5 61.5t-61.5 147.5t61.5 148.5t147.5 62.5t146.5 -62t60.5 -149q0 -86 -60.5 -147.5t-146.5 -61.5zM209 1200q44 0 74 32t30 75q0 44 -30 75t-74 31q-43 0 -75 -31t-32 -75q0 -43 32 -75t75 -32z" />
<glyph unicode="&#x2dc;" horiz-adv-x="657" d="M446 1135q-40 0 -71.5 16.5t-51.5 39.5t-37.5 46.5t-38.5 40t-44 16.5q-38 0 -62 -37t-24 -110h-117q0 128 55 201t156 73q39 0 70.5 -16.5t52 -39.5t38.5 -46.5t39 -40t44 -16.5q37 0 60.5 37t23.5 110h118q0 -128 -55 -201t-156 -73z" />
<glyph unicode="&#x2000;" horiz-adv-x="888" />
<glyph unicode="&#x2001;" horiz-adv-x="1776" />
<glyph unicode="&#x2002;" horiz-adv-x="888" />
<glyph unicode="&#x2003;" horiz-adv-x="1776" />
<glyph unicode="&#x2004;" horiz-adv-x="592" />
<glyph unicode="&#x2005;" horiz-adv-x="444" />
<glyph unicode="&#x2006;" horiz-adv-x="296" />
<glyph unicode="&#x2007;" horiz-adv-x="296" />
<glyph unicode="&#x2008;" horiz-adv-x="222" />
<glyph unicode="&#x2009;" horiz-adv-x="355" />
<glyph unicode="&#x200a;" horiz-adv-x="98" />
<glyph unicode="&#x2010;" horiz-adv-x="614" d="M553 403h-492v185h492v-185z" />
<glyph unicode="&#x2011;" horiz-adv-x="614" d="M553 403h-492v185h492v-185z" />
<glyph unicode="&#x2012;" horiz-adv-x="614" d="M553 403h-492v185h492v-185z" />
<glyph unicode="&#x2013;" horiz-adv-x="1214" d="M1153 403h-1092v185h1092v-185z" />
<glyph unicode="&#x2014;" horiz-adv-x="1705" d="M1645 403h-1584v185h1584v-185z" />
<glyph unicode="&#x2018;" horiz-adv-x="499" d="M86 1038q0 103 52.5 194.5t140.5 153.5l96 -77q-51 -30 -94.5 -86t-53.5 -107q12 4 35 4q53 0 88 -36t35 -93t-41 -98t-98 -41q-66 0 -113 50t-47 136z" />
<glyph unicode="&#x2019;" horiz-adv-x="499" d="M406 1200q0 -103 -53 -195.5t-140 -154.5l-96 80q51 30 94 85.5t53 106.5q-18 -6 -35 -6q-53 0 -88 36t-35 93q0 58 41.5 99.5t98.5 41.5q66 0 113 -50t47 -136z" />
<glyph unicode="&#x201a;" d="M406 78q0 -103 -53 -195.5t-140 -154.5l-96 79q50 30 93.5 85.5t53.5 107.5q-18 -6 -35 -6q-53 0 -88 36t-35 93q0 58 41.5 99.5t98.5 41.5q66 0 113 -50t47 -136z" />
<glyph unicode="&#x201c;" horiz-adv-x="878" d="M94 1038q0 103 52 194.5t139 153.5l98 -77q-51 -30 -94.5 -86t-52.5 -107q8 4 34 4q52 0 86.5 -36.5t34.5 -92.5q0 -57 -40.5 -98t-98.5 -41q-66 0 -112 50t-46 136zM473 1038q0 103 52 194.5t139 153.5l98 -77q-51 -30 -95 -86t-53 -107q8 4 35 4q52 0 86.5 -36.5 t34.5 -92.5q0 -57 -40.5 -98t-98.5 -41q-66 0 -112 50t-46 136z" />
<glyph unicode="&#x201d;" horiz-adv-x="878" d="M784 1200q0 -103 -52.5 -195.5t-139.5 -154.5l-96 80q51 30 94 85.5t53 106.5q-18 -6 -35 -6q-53 0 -88 36t-35 93q0 58 41.5 99.5t98.5 41.5q66 0 112.5 -50t46.5 -136zM406 1200q0 -103 -53 -195.5t-140 -154.5l-96 80q51 30 94 85.5t53 106.5q-18 -6 -35 -6 q-53 0 -88 36t-35 93q0 58 41.5 99.5t98.5 41.5q66 0 113 -50t47 -136z" />
<glyph unicode="&#x201e;" horiz-adv-x="880" d="M406 78q0 -103 -53 -195.5t-140 -154.5l-96 79q50 30 93.5 85.5t53.5 107.5q-18 -6 -35 -6q-53 0 -88 36t-35 93q0 58 41.5 99.5t98.5 41.5q66 0 113 -50t47 -136zM784 78q0 -103 -52.5 -195.5t-139.5 -154.5l-96 79q50 30 93.5 85.5t53.5 107.5q-18 -6 -35 -6 q-53 0 -88 36t-35 93q0 58 41.5 99.5t98.5 41.5q66 0 112.5 -50t46.5 -136z" />
<glyph unicode="&#x2026;" horiz-adv-x="1503" d="M391 121q0 -57 -42.5 -99t-100.5 -42t-100 42t-42 99q0 59 42 101t100 42t100.5 -42t42.5 -101zM893 121q0 -57 -42.5 -99t-100.5 -42t-100 42t-42 99q0 59 42 101t100 42t100.5 -42t42.5 -101zM1395 121q0 -57 -43 -99t-101 -42t-99.5 42t-41.5 99q0 59 41.5 101 t99.5 42q59 0 101.5 -42.5t42.5 -100.5z" />
<glyph unicode="&#x202f;" horiz-adv-x="355" />
<glyph unicode="&#x2039;" horiz-adv-x="653" d="M592 129h-203l-328 369l328 362h203l-328 -362z" />
<glyph unicode="&#x203a;" horiz-adv-x="653" d="M592 498l-328 -369h-203l328 369l-328 362h203z" />
<glyph unicode="&#x205f;" horiz-adv-x="444" />
<glyph unicode="&#x20ac;" horiz-adv-x="1439" d="M846 -25q-249 0 -436.5 134.5t-251.5 361.5h-107v137h80q-2 23 -2 74q0 24 4 78h-82v137h107q66 224 253 358t435 134q357 0 549 -308l-205 -104q-51 88 -144 143.5t-200 55.5q-146 0 -259.5 -75t-168.5 -204h553v-137h-592q-4 -50 -4 -78q0 -51 4 -74h592v-137h-555 q55 -131 168.5 -207t261.5 -76q108 0 200.5 55t143.5 144l205 -104q-195 -308 -549 -308z" />
<glyph unicode="&#x2122;" horiz-adv-x="929" d="M858 915h-57v373l-154 -373h-16l-154 373v-373h-57v451h88l131 -328l131 328h88v-451zM346 1313h-127v-398h-57v398h-127v53h311v-53z" />
<glyph unicode="&#x25fc;" horiz-adv-x="993" d="M0 993h993v-993h-993v993z" />
</font>
</defs>
</svg>
